<?xml version="1.0" standalone="no"?>
<!DOCTYPE svg PUBLIC "-//W3C//DTD SVG 1.1//EN" "http://www.w3.org/Graphics/SVG/1.1/DTD/svg11.dtd" >
<svg xmlns="http://www.w3.org/2000/svg">
<metadata></metadata>
<defs>
<font id="fixedsysttfmonospaced" horiz-adv-x="1126" >
<font-face units-per-em="2048" ascent="1638" descent="-410" />
<missing-glyph horiz-adv-x="500" />
<glyph />
<glyph />
<glyph unicode="&#xd;" />
<glyph d="M137 0v1229h819v-1229h-819z" />
<glyph d="M137 0v1229h819v-1229h-819z" />
<glyph d="M137 0v1229h819v-1229h-819z" />
<glyph d="M137 0v1229h819v-1229h-819z" />
<glyph d="M137 0v1229h819v-1229h-819z" />
<glyph d="M137 0v1229h819v-1229h-819z" />
<glyph d="M137 0v1229h819v-1229h-819z" />
<glyph d="M137 0v1229h819v-1229h-819z" />
<glyph d="M137 0v1229h819v-1229h-819z" />
<glyph d="M137 0v1229h819v-1229h-819z" />
<glyph d="M137 0v1229h819v-1229h-819z" />
<glyph d="M137 0v1229h819v-1229h-819z" />
<glyph d="M137 0v1229h819v-1229h-819z" />
<glyph d="M137 0v1229h819v-1229h-819z" />
<glyph d="M137 0v1229h819v-1229h-819z" />
<glyph d="M137 0v1229h819v-1229h-819z" />
<glyph d="M137 0v1229h819v-1229h-819z" />
<glyph d="M137 0v1229h819v-1229h-819z" />
<glyph d="M137 0v1229h819v-1229h-819z" />
<glyph d="M137 0v1229h819v-1229h-819z" />
<glyph d="M137 0v1229h819v-1229h-819z" />
<glyph d="M137 0v1229h819v-1229h-819z" />
<glyph d="M137 0v1229h819v-1229h-819z" />
<glyph unicode="&#x85;" d="M137 0v1229h819v-1229h-819z" />
<glyph d="M137 0v1229h819v-1229h-819z" />
<glyph d="M137 0v1229h819v-1229h-819z" />
<glyph d="M137 0v1229h819v-1229h-819z" />
<glyph d="M137 0v1229h819v-1229h-819z" />
<glyph d="M137 0v1229h819v-1229h-819z" />
<glyph d="M137 0v1229h819v-1229h-819z" />
<glyph d="M137 0v1229h819v-1229h-819z" />
<glyph d="M137 0v1229h819v-1229h-819z" />
<glyph d="M137 0v1229h819v-1229h-819z" />
<glyph d="M137 0v1229h819v-1229h-819z" />
<glyph d="M137 0v1229h819v-1229h-819z" />
<glyph d="M137 0v1229h819v-1229h-819z" />
<glyph d="M137 0v1229h819v-1229h-819z" />
<glyph d="M137 0v1229h819v-1229h-819z" />
<glyph d="M137 0v1229h819v-1229h-819z" />
<glyph d="M137 0v1229h819v-1229h-819z" />
<glyph d="M137 0v1229h819v-1229h-819z" />
<glyph d="M137 0v1229h819v-1229h-819z" />
<glyph d="M137 0v1229h819v-1229h-819z" />
<glyph d="M137 0v1229h819v-1229h-819z" />
<glyph d="M137 0v1229h819v-1229h-819z" />
<glyph d="M137 0v1229h819v-1229h-819z" />
<glyph d="M137 0v1229h819v-1229h-819z" />
<glyph d="M137 0v1229h819v-1229h-819z" />
<glyph d="M137 0v1229h819v-1229h-819z" />
<glyph d="M137 0v1229h819v-1229h-819z" />
<glyph unicode="&#xa;" d="M137 0v1229h819v-1229h-819z" />
<glyph d="M137 0v1229h819v-1229h-819z" />
<glyph d="M137 0v1229h819v-1229h-819z" />
<glyph d="M137 0v1229h819v-1229h-819z" />
<glyph d="M137 0v1229h819v-1229h-819z" />
<glyph d="M137 0v1229h819v-1229h-819z" />
<glyph d="M137 0v1229h819v-1229h-819z" />
<glyph d="M137 0v1229h819v-1229h-819z" />
<glyph unicode=" " />
<glyph unicode="!" d="M319 686h134v-256h266v256h133v420q-8 -5 -26 -3q-22 2 -36 4q-13 2 -37 8q-17 4 -24 11t-11 24q-6 24 -8 37t-4 37q-1 18 3 25h-246q4 -7 3 -25q-2 -24 -4 -37t-8 -37q-4 -16 -12 -24q-7 -7 -23 -11q-24 -6 -37 -8t-37 -4q-18 -2 -26 3v-420zM463 0h246v266h-246v-266z " />
<glyph unicode="&#x22;" d="M111 823h266v410h-266v-410zM664 823h266v410h-266v-410z" />
<glyph unicode="#" d="M102 276h142v-276h252v266h184v-266h260v276h141v144h-139v409h139v144h-141v276h-260v-266h-174v266h-262v-276h-142v-144h131v-409h-131v-144zM506 430v389h164v-389h-164z" />
<glyph unicode="$" d="M92 152h141q0 -50 1 -73q2 -46 2 -73q8 -2 26 -2h45h45q21 0 31 -2v-274h262v278h143v141l142 5v282h-139v141h-146v125h-141l-2 144h-121v289h264v-144h287v144h-141l-3 141h-143v285h-264v-285h-143v-146h-142v-282h144v-141h141v-125h123v-144l139 2v-291h-262v142 h-289v-137z" />
<glyph unicode="%" d="M2 1014q8 5 26 3q24 -2 37 -4q10 -2 36 -8q16 -4 24 -12q7 -7 11 -23q6 -24 8 -37t4 -37q2 -18 -3 -26h390q-5 9 -4 26q1 10 5 37q2 13 8 37q4 16 11 23q8 8 24 12q26 6 36 8q13 2 37 4q18 2 26 -3v266q-8 -5 -26 -3q-24 2 -37 4q-10 2 -36 8q-17 4 -24 11t-11 24 q-6 24 -8 37q-4 27 -5 37q-1 16 4 25h-390q4 -7 3 -25q-2 -24 -4 -37t-8 -37q-4 -17 -11 -24t-24 -11q-26 -6 -36 -8q-13 -2 -37 -4q-18 -2 -26 3v-266zM145 174h123q-5 8 -3 26q2 24 4 37q1 6 2.5 12t3.5 13t3 11q4 17 11 24q2 2 20 5q23 4 40 5q8 1 21.5 2.5t18.5 1.5 q19 2 23 6q6 6 11 25q5 21 8 40q2 13 4 41q2 20 -3 28h103q-5 8 -5 26q0 14 4 42q3 23 9 40q7 19 12 25t25 12q17 6 40 9q21 3 39 3q22 0 29 -4v103q9 -5 28 -4q13 1 41 5q19 3 40 8q17 4 24 11q2 2 5 21q4 23 5 39l3 21t2 19q2 19 6 23q7 7 23 11q24 6 37 8t37 4 q18 2 26 -3v267h-123q5 -8 3 -26q-2 -24 -4 -37t-8 -37q-4 -15 -12 -23q-5 -5 -22 -6q-5 0 -18.5 -1.5t-21.5 -2.5q-7 0 -40 -6q-19 -3 -21 -5q-5 -5 -6 -22q0 -5 -1.5 -18.5t-2.5 -21.5q-1 -17 -5 -40q-3 -19 -5 -21q-4 -4 -23 -6q-5 0 -18.5 -1.5t-21.5 -2.5 q-18 -1 -40 -5q-18 -3 -20 -5q-7 -7 -11 -24q-6 -26 -8 -36q-4 -27 -5 -37q-1 -17 4 -26q-9 2 -22 1q-22 -2 -32 -4q-17 -3 -30 -7q-15 -4 -19 -10t-9 -21q-6 -20 -8 -31l-5 -30q-2 -16 2 -21q-8 5 -26 3q-24 -2 -37 -4t-37 -8q-16 -4 -23 -11q-4 -4 -6 -23q0 -5 -1.5 -18.5 t-2.5 -21.5q-1 -7 -6 -40q-3 -18 -5 -20q-7 -7 -23 -11q-34 -9 -37 -9q-13 -2 -37 -4q-18 -2 -26 3v-266zM289 1014v266h123v-266h-123zM432 20h113v-133h420q-5 8 -3 26q2 24 4 37t8 37q4 16 11 23q8 8 24 12q24 6 37 8q14 2 36 4q18 2 26 -3v266q-8 -5 -26 -3q-22 2 -36 4 q-13 2 -37 8q-17 4 -24 11t-11 24q-6 24 -8 37t-4 37q-1 18 3 25h-420v-133h-113v-287zM698 31v266h123v-266h-123z" />
<glyph unicode="&#x26;" d="M115 143q7 4 25 3q24 -2 37 -4t37 -8q17 -4 24 -11t11 -24q6 -24 8 -37q2 -14 4 -36q2 -18 -3 -26h399v123h144v-123h276v133h-123v287h123v133h-553v-133h123v-277h-246v543h246q-5 8 -3 28q2 28 4 41q3 19 8 40q4 16 12 24q7 7 23 11q34 9 37 9q13 2 37 4q18 2 26 -3 v266q-8 -5 -26 -3q-24 2 -37 4t-37 8q-16 4 -23 11q-8 8 -12 24q-6 24 -8 37t-4 37q-1 18 3 25h-389q4 -7 3 -25q-2 -24 -4 -37t-8 -37q-4 -17 -11 -24t-24 -11q-24 -6 -37 -8t-37 -4q-18 -1 -25 3v-277h123v-143h-123v-543zM401 840v266h103v-266h-103z" />
<glyph unicode="'" d="M365 827h245v410h-245v-410z" />
<glyph unicode="(" d="M322 152h133v-287h123v-133h276v133h-133v287h-133v696h133v287h133v133h-276v-133h-123v-287h-133v-696z" />
<glyph unicode=")" d="M338 -125l2 -139h248v133h153v287h133v696h-133v281h-143v139h-258l-2 -148h135l2 -272h113v-696h-113l-2 -281h-135z" />
<glyph unicode="*" d="M80 586h266v-144h-123v-133h256v123h144v-123h276v133h-123v144h266v123h-266v143h123v133h-276v-123h-144v123h-256v-133h123v-143h-266v-123z" />
<glyph unicode="+" d="M121 516h276v-276h267v276h276v123h-276v276h-267v-276h-276v-123z" />
<glyph unicode="," d="M410 14h102v-143h-102v-133h245q-4 7 -3 25q2 24 4 37q0 3 9 37q4 17 11 24t23 11q24 6 37 8t37 4q18 2 26 -3v410h-389v-277z" />
<glyph unicode="-" d="M115 518h819v103h-819v-103z" />
<glyph unicode="." d="M406 0h389v266h-389v-266z" />
<glyph unicode="/" d="M178 66v-197h203l616 1292v101h-221z" />
<glyph unicode="0" d="M168 145q8 5 26 3q22 -2 36 -4q13 -2 37 -8q17 -4 24 -11t11 -24q6 -26 8 -36q2 -13 4 -37q2 -18 -3 -26h533q-5 8 -3 26q2 24 4 37q2 10 8 36q4 17 11 24t24 11q24 6 37 8t37 4q18 1 25 -3v963q-7 -4 -25 -3q-24 2 -37 4t-37 8q-17 4 -24 11t-11 24q-6 24 -8 37t-4 37 q-1 18 3 25h-533q4 -7 3 -25q-2 -24 -4 -37t-8 -37q-4 -17 -11 -24t-24 -11q-24 -6 -37 -8q-14 -2 -36 -4q-18 -2 -26 3v-963zM446 141v133h123v287h-123v543h267v-133h-123v-287h123v-543h-267z" />
<glyph unicode="1" d="M111 831h399v-829h276v1249h-276v-133h-123v-143h-276v-144z" />
<glyph unicode="2" d="M201 0h819v133h-533v143h119q-4 7 -6 28q-2 26 -2 40q0 23 3 41q3 19 9 25q2 2 21 5q22 4 40 5q8 1 21.5 2.5t18.5 1.5q17 1 22 6q2 2 5 21q4 23 5 39l3 21t2 19q2 19 6 23q7 7 24 11q21 5 40 8q28 4 41 5q19 1 28 -4v113h133v420q-8 -5 -26 -3q-24 2 -37 4q-10 2 -36 8 q-17 4 -24 11t-11 24q-6 24 -8 37q-4 27 -5 37q-1 16 4 25h-533q4 -7 3 -25q-2 -24 -4 -37t-8 -37q-4 -17 -11 -24t-24 -11q-24 -6 -37 -8t-37 -4q-18 -1 -25 3v-266h276v266h256v-420h-123q2 -8 2 -22q0 -17 -3 -35q-3 -16 -8 -34q-5 -16 -11 -22q-4 -6 -20 -9 q-19 -4 -33 -5q-24 -2 -37 -2q-18 0 -23 4q4 -6 7 -29q3 -21 3 -45q0 -15 -2 -43q-1 -19 -8 -26q-4 -4 -24 -3q-23 2 -46 3q-34 2 -49 2q-20 0 -22 -2q-4 -4 -4 -25q0 -29 1 -46q2 -26 0 -47q-2 -23 -3 -24q-6 -6 -25 -8q-24 -2 -39 -2q-21 0 -39 3q-20 3 -26 7v-276z" />
<glyph unicode="3" d="M195 143q7 4 25 3q24 -2 37 -4t37 -8q16 -4 23 -11q8 -8 12 -24q6 -24 8 -37q2 -14 4 -36q2 -18 -3 -26h532q-5 8 -3 26q2 22 4 36q0 3 9 37q4 17 11 24t23 11q24 6 37 8t37 4q18 2 26 -3v420h-123v123h123v420q-8 -5 -26 -3q-24 2 -37 4t-37 8q-16 4 -23 11t-11 24 q-9 34 -9 37q-2 13 -4 37q-1 18 3 25h-532q4 -7 3 -25q-2 -24 -4 -37t-8 -37q-4 -16 -12 -24q-7 -7 -23 -11q-24 -6 -37 -8t-37 -4q-18 -1 -25 3v-266h276v266h256v-420h-246v-123h246v-420h-256v267h-276v-267z" />
<glyph unicode="4" d="M111 276h542v-276h287v276h133v144h-133v543h-287v-533h-256v133h103v686h-256v-686h-133v-287z" />
<glyph unicode="5" d="M90 0h641q-5 8 -3 26q2 22 4 36q2 13 8 37q4 16 12 24q2 2 20 5q22 4 40 5q8 1 21.5 2.5t18.5 1.5q17 1 22 6q3 3 6 21q4 23 5 40q1 8 2.5 21.5t1.5 18.5q1 17 6 22q8 8 24 12q26 6 36 8q13 2 37 4q18 2 26 -3v276h-133v123h-508v430h641v133h-928v-686h641v-276 q-7 4 -25 3q-24 -2 -37 -4t-37 -8q-16 -4 -24 -12q-7 -7 -11 -24q-5 -21 -8 -40q-2 -13 -4 -41q-2 -20 3 -28h-498v-133z" />
<glyph unicode="6" d="M195 143q7 4 25 3q24 -2 37 -4t37 -8q16 -4 23 -11q8 -8 12 -24q6 -24 8 -37q2 -14 4 -36q2 -18 -3 -26h532q-5 8 -3 26q2 22 4 36q0 3 9 37q4 17 11 24t23 11q24 6 37 8t37 4q18 2 26 -3v533q-8 -5 -26 -3q-24 2 -37 4t-37 8q-16 4 -23 11q-6 6 -11 25q-8 31 -9 40 q-2 13 -4 41q-1 20 3 27h-266v134q9 -5 26 -4q10 1 37 5q10 2 36 8q17 4 24 11q2 2 5 21q4 23 5 39q1 8 2.5 21.5t1.5 18.5q1 17 7 23q7 7 23 11q24 6 37 8t37 4q18 1 25 -3v123h-399v-266q-8 5 -28 3q-28 -2 -41 -4q-19 -3 -40 -8q-17 -4 -24 -11q-4 -4 -6 -23 q0 -5 -1.5 -18.5t-2.5 -21.5q-1 -18 -5 -40q-3 -17 -6 -20q-8 -8 -23 -12q-24 -6 -37 -8t-37 -4q-18 -1 -25 3v-676zM481 143v533h246v-533h-246z" />
<glyph unicode="7" d="M178 1116h533v-143h-133v-287h-123v-266h-133v-420h256v420h143v266h143v287h133v276h-819v-133z" />
<glyph unicode="8" d="M178 143q8 5 26 3q24 -2 37 -4t37 -8q16 -4 23 -11t11 -24q9 -34 9 -37q2 -14 4 -36q2 -18 -3 -26h532q-5 8 -3 26q2 22 4 36q2 13 8 37q4 17 11 24t24 11q24 6 37 8t37 4q18 1 25 -3v420h-123v123h123v420q-7 -4 -25 -3q-24 2 -37 4t-37 8q-17 4 -24 11t-11 24 q-6 24 -8 37t-4 37q-1 18 3 25h-532q4 -7 3 -25q-2 -24 -4 -37q0 -3 -9 -37q-4 -17 -11 -24t-23 -11q-24 -6 -37 -8t-37 -4q-18 -2 -26 3v-420h123v-123h-123v-420zM465 143v410h102q-5 -8 -3 -26q2 -24 4 -37q1 -6 2.5 -12t3.5 -13t3 -11q4 -17 11 -24t23 -11q24 -6 37 -8 t37 -4q18 -2 26 3v-267h-246zM465 829v277h246v-410h-133v133h-113z" />
<glyph unicode="9" d="M176 573q9 5 26 4q10 -1 37 -5q10 -2 36 -8q17 -4 24 -11q6 -6 11 -25q5 -21 8 -40q4 -28 5 -41q1 -18 -4 -27h246v-144h-102q5 -8 3 -27q-2 -28 -4 -41q-3 -19 -8 -40q-4 -17 -12 -25q-7 -7 -23 -11q-24 -6 -37 -8t-37 -4q-18 -2 -26 3v-123h400v266q7 -4 27 -3 q28 2 41 4q19 3 40 8q17 4 25 12q2 2 5 20q4 22 5 40q1 8 2.5 21.5t1.5 18.5q2 19 6 23q7 7 24 11q24 6 37 8t37 4q18 1 25 -3v676q-7 -4 -25 -3q-24 2 -37 4t-37 8q-17 4 -24 11t-11 24q-6 24 -8 37t-4 37q-1 18 3 25h-533q5 -9 4 -25q-1 -10 -5 -37q-2 -13 -8 -37 q-4 -17 -11 -24t-24 -11q-26 -6 -36 -8q-13 -2 -37 -4q-18 -2 -26 3v-533zM463 573v533h246v-533h-246z" />
<glyph unicode=":" d="M395 18h389v267h-389v-267zM395 715h389v266h-389v-266z" />
<glyph unicode=";" d="M406 8h102v-143h-102v-133h245q-4 7 -3 25q2 24 4 37t8 37q4 16 12 24q7 7 23 11q24 6 37 8t37 4q18 2 26 -3v410h-389v-277zM406 715h389v266h-389v-266z" />
<glyph unicode="&#x3c;" d="M186 614l617 635h209v-86l-547 -551l547 -536v-76h-209z" />
<glyph unicode="=" d="M203 457h821v123h-821v-123zM203 741h821v123h-821v-123z" />
<glyph unicode="&#x3e;" d="M188 0h209l617 614l-617 635h-209v-86l531 -534l-531 -543v-86z" />
<glyph unicode="?" d="M145 840h277v266h256v-266q-8 5 -26 3q-24 -2 -37 -4l-36 -9q-17 -4 -24 -11t-11 -24q-5 -21 -8 -40q-4 -28 -5 -41q-1 -19 4 -28h-103v-256h256v246q8 -5 28 -3q28 2 41 4q19 3 40 8q17 4 24 11q2 2 5 21q4 23 5 40l3 21t2 19q1 17 6 22q7 7 23 11q34 9 37 9q13 2 37 4 q18 2 26 -3v266q-8 -5 -26 -3q-24 2 -37 4t-37 8q-16 4 -23 11q-8 8 -12 24q-6 24 -8 37t-4 37q-1 18 3 25h-532q4 -7 3 -25q-2 -24 -4 -37t-8 -37q-4 -16 -12 -24q-7 -7 -23 -11q-24 -6 -37 -8t-37 -4q-18 -2 -26 3v-266zM432 0h246v266h-246v-266z" />
<glyph unicode="@" d="M14 145q8 5 26 3q24 -2 37 -4t37 -8q16 -4 23 -11t11 -24l9 -36q2 -13 4 -37q2 -18 -3 -26h962v133h-819v985h543v-289h-287v-143h-113v-266h113v-133h563v827h-135l-8 135h-832v-133l-131 -2v-971zM735 420v266h148v-266h-148z" />
<glyph unicode="A" d="M121 0h276v410h267v-410h276v963q-9 -5 -26 -4q-8 1 -36 5q-13 2 -37 8q-17 4 -24 11q-4 1 -6 21q0 5 -1.5 18t-2.5 21q-1 17 -5 40q-3 16 -5 23q-7 2 -23 5q-22 4 -40 5q-8 1 -21.5 2.5t-18.5 1.5q-19 2 -20 6q-7 7 -11 24q-9 34 -9 37q-2 13 -4 37q-1 18 3 25h-245 q4 -7 3 -25q-2 -24 -4 -37q0 -3 -9 -37q-4 -17 -11 -24q-5 -5 -22 -6q-5 0 -18.5 -1.5t-21.5 -2.5q-18 -1 -40 -5q-19 -3 -21 -5q-4 -4 -6 -23q0 -5 -1.5 -18.5t-2.5 -21.5q-1 -16 -5 -39q-3 -19 -5 -21q-7 -7 -24 -11q-24 -6 -37 -8q-27 -4 -37 -5q-16 -1 -25 4v-963z M408 573v390h245v-390h-245z" />
<glyph unicode="B" d="M127 0h676q-5 8 -3 26q2 22 4 36q2 13 8 37q4 17 11 24t24 11q24 6 37 8t37 4q18 1 25 -3v420h-123v123h123v420q-7 -4 -25 -3q-24 2 -37 4t-37 8q-17 4 -24 11t-11 24q-6 24 -8 37t-4 37q-1 18 3 25h-676v-1249zM414 143v410h245v-410h-245zM414 696v410h245v-410h-245z " />
<glyph unicode="C" d="M121 143q7 4 25 3q24 -2 37 -4t37 -8q17 -4 24 -11t11 -24q6 -24 8 -37q2 -14 4 -36q2 -18 -3 -26h533q-5 8 -3 26q2 22 4 36q2 13 8 37q4 17 11 24t24 11q24 6 37 8q14 2 36 4q18 2 26 -3v267h-276v-267h-256v963h256v-266h276v266q-8 -5 -26 -3q-22 2 -36 4 q-13 2 -37 8q-17 4 -24 11t-11 24q-6 24 -8 37t-4 37q-1 18 3 25h-533q4 -7 3 -25q-2 -24 -4 -37t-8 -37q-4 -17 -11 -24t-24 -11q-24 -6 -37 -8t-37 -4q-18 -1 -25 3v-963z" />
<glyph unicode="D" d="M111 0h532q-5 8 -3 26q2 22 4 36q2 13 8 37q4 16 12 24q2 2 20 5q23 4 40 5q8 1 21.5 2.5t18.5 1.5q17 1 22 6q3 3 6 21q4 23 5 40q1 8 2.5 21.5t1.5 18.5q1 17 6 22q8 8 23 12q24 6 37 8t37 4q18 2 26 -3v676q-9 -5 -26 -4q-10 1 -37 5q-13 2 -37 8q-16 4 -23 11 q-4 1 -6 21q0 5 -1.5 18t-2.5 21q-1 17 -5 40q-2 10 -6 23q-8 3 -22 5q-23 4 -40 5q-8 1 -21.5 2.5t-18.5 1.5q-19 2 -20 6q-8 8 -12 24q-6 24 -8 37t-4 37q-1 18 3 25h-532v-1249zM397 143v963h103q-5 -8 -3 -26q2 -24 4 -37q2 -10 8 -36q4 -17 11 -24t24 -11q24 -6 37 -8 q28 -4 36 -5q17 -1 26 4v-676q-8 5 -26 3q-22 -2 -36 -4q-3 0 -37 -9q-17 -4 -24 -11t-11 -23q-6 -24 -8 -37t-4 -37q-2 -18 3 -26h-103z" />
<glyph unicode="E" d="M121 0h819v133h-532v430h389v123h-389v430h532v133h-819v-1249z" />
<glyph unicode="F" d="M121 0h276v563h400v123h-389v430h532v133h-819v-1249z" />
<glyph unicode="G" d="M121 143q7 4 25 3q24 -2 37 -4t37 -8q17 -4 24 -11t11 -24q6 -24 8 -37q2 -14 4 -36q2 -18 -3 -26h676v553h-410v-133h123v-277h-245v963h256v-266h276v266q-8 -5 -26 -3q-22 2 -36 4q-13 2 -37 8q-17 4 -24 11t-11 24q-6 24 -8 37t-4 37q-1 18 3 25h-533q4 -7 3 -25 q-2 -24 -4 -37t-8 -37q-4 -17 -11 -24t-24 -11q-24 -6 -37 -8t-37 -4q-18 -1 -25 3v-963z" />
<glyph unicode="H" d="M121 0h276v553h267v-553h276v1249h-276v-553h-267v553h-276v-1249z" />
<glyph unicode="I" d="M254 0h532v133h-122v983h122v133h-532v-133h123v-983h-123v-133z" />
<glyph unicode="J" d="M121 143q7 4 25 3q24 -2 37 -4t37 -8q17 -4 24 -11t11 -24q6 -24 8 -37q2 -14 4 -36q2 -18 -3 -26h533q-5 8 -3 26q2 22 4 36q2 13 8 37q4 17 11 24t24 11q24 6 37 8q14 2 36 4q18 2 26 -3v1106h-276v-1106h-267v267h-276v-267z" />
<glyph unicode="K" d="M115 0h276v553h123v-277h143v-276h277v276h-133v287h-133v123h133v287h133v276h-277v-276h-143v-277h-123v553h-276v-1249z" />
<glyph unicode="L" d="M121 0h819v133h-543v1116h-276v-1249z" />
<glyph unicode="M" d="M90 0h277v829h112v144h-112v276h-277v-1249zM500 430h133v389h143v-819h277v1249h-277v-266q-8 5 -27 3q-28 -2 -41 -4q-19 -3 -40 -8q-19 -5 -25 -11q-4 -4 -6 -23q0 -5 -1.5 -18.5t-2.5 -21.5q-1 -17 -5 -40q-3 -18 -5 -20q-8 -8 -24 -12q-24 -6 -37 -8t-37 -4 q-18 -1 -25 3v-389z" />
<glyph unicode="N" d="M115 0h276v717l410 -361v-356h276v1249h-276v-616l-410 391v225h-276v-1249z" />
<glyph unicode="O" d="M154 141q7 4 25 3q24 -2 37 -4t37 -8q16 -4 23 -11q8 -8 12 -24q6 -24 8 -37q2 -14 4 -36q2 -18 -3 -26h532q-5 8 -3 26q2 22 4 36q0 3 9 37q4 17 11 24t23 11q24 6 37 8t37 4q18 2 26 -3v963q-8 -5 -26 -3q-24 2 -37 4t-37 8q-16 4 -23 11t-11 24q-9 34 -9 37 q-2 13 -4 37q-1 18 3 25h-532q4 -7 3 -25q-2 -24 -4 -37t-8 -37q-4 -16 -12 -24q-7 -7 -23 -11q-24 -6 -37 -8t-37 -4q-18 -1 -25 3v-963zM440 141v963h246v-963h-246z" />
<glyph unicode="P" d="M117 0h284v563h410v123h133v428l-133 2v144h-694v-1260zM401 686v428h265v-428h-265z" />
<glyph unicode="Q" d="M117 154q7 4 25 3q24 -2 37 -4q3 0 37 -9q17 -4 24 -11t11 -24q5 -21 8 -40q2 -13 4 -41q2 -20 -3 -28h246q-5 -8 -3 -28q2 -28 4 -41q3 -19 8 -40q4 -17 11 -24q1 -4 21 -6q5 0 18.5 -1.5t21.5 -2.5q18 -1 40 -5q8 -1 22 -6q7 -7 11 -23q9 -34 9 -37q2 -13 4 -37 q1 -18 -3 -25h266v133h-123v286h123v973q-8 -5 -26 -3q-24 2 -37 4q-10 2 -36 8q-16 4 -24 12q-7 7 -11 23q-6 24 -8 37t-4 37q-2 18 3 26h-533q5 -8 3 -26q-2 -24 -4 -37t-8 -37q-4 -16 -11 -23q-8 -8 -24 -12q-24 -6 -37 -8t-37 -4q-18 -1 -25 3v-962zM403 154v962h246 v-962h-246z" />
<glyph unicode="R" d="M162 0h276v553h113q-5 -8 -3 -26q2 -24 4 -37q2 -10 8 -36q4 -17 11 -24q6 -6 25 -11q21 -5 40 -8q13 -2 41 -4q20 -2 28 3v-410h276v420h-123v266h123v420q-8 -5 -26 -3q-22 2 -36 4q-13 2 -37 8q-17 4 -24 11t-11 24q-6 24 -8 37t-4 37q-1 18 3 25h-676v-1249zM449 696 v410h245v-410h-245z" />
<glyph unicode="S" d="M104 143q8 5 26 3q24 -2 37 -4t37 -8q16 -4 23 -11q8 -8 12 -24q6 -24 8 -37q2 -14 4 -36q2 -18 -3 -26h532q-5 8 -3 26q2 22 4 36q0 3 9 37q4 17 11 24t23 11q24 6 37 8t37 4q18 2 26 -3v267q-8 -5 -26 -3q-24 2 -37 4t-37 8q-16 4 -23 11q-4 1 -6 21q0 5 -1.5 18 t-2.5 21q-1 7 -6 40q-3 16 -5 23q-7 7 -24 11q-21 5 -40 8q-28 4 -41 5q-19 1 -28 -4v103q-7 -4 -29 -4q-18 0 -39 3q-23 3 -40 9q-19 6 -25 12t-12 25q-6 17 -9 40q-4 28 -4 40q0 20 5 28h-103v277h256v-123h277v123q-8 -5 -26 -3q-24 2 -37 4t-37 8q-16 4 -23 11 q-8 8 -12 24q-6 24 -8 37t-4 37q-1 18 3 25h-532q4 -7 3 -25q-2 -24 -4 -37t-8 -37q-4 -16 -12 -24q-7 -7 -23 -11q-24 -6 -37 -8t-37 -4q-18 -2 -26 3v-266q8 5 26 3q24 -2 37 -4q3 0 37 -9q16 -4 23 -11q3 -8 5 -22q6 -33 6 -40q1 -8 2.5 -21.5t1.5 -18.5q2 -20 6 -21 q7 -7 23 -11q24 -6 37 -8t37 -4q18 -2 26 3q-4 -5 -2 -22q1 -8 5 -31q2 -11 8 -31q4 -14 9 -19t19 -9q22 -6 30 -8q22 -4 32 -5q17 -2 22 2q-5 -9 -4 -26q1 -10 5 -37q2 -10 8 -36q4 -17 11 -24t24 -11q26 -6 36 -8q13 -2 37 -4q18 -2 26 3v-267h-256v123h-277v-123z" />
<glyph unicode="T" d="M121 1116h276v-1116h267v1116h276v133h-819v-133z" />
<glyph unicode="U" d="M115 143q7 4 25 3q24 -2 37 -4t37 -8q17 -4 24 -11t11 -24q6 -24 8 -37q2 -14 4 -36q2 -18 -3 -26h533q-5 9 -4 26q1 8 5 36q2 13 8 37q4 17 11 24t24 11q26 6 36 8q13 2 37 4q18 2 26 -3v1106h-277v-1106h-266v1106h-276v-1106z" />
<glyph unicode="V" d="M111 287q7 4 25 3q24 -2 37 -4t37 -8q15 -4 23 -12q5 -14 6 -22q4 -22 5 -40q1 -8 2.5 -21.5t1.5 -18.5q2 -20 6 -21q1 -4 20 -6q5 0 18.5 -1.5t21.5 -2.5q18 -1 40 -5q16 -3 23 -5q7 -7 11 -24q6 -24 8 -37q2 -14 4 -36q2 -18 -3 -26h246q-5 8 -3 26q2 22 4 36 q2 13 8 37q4 16 12 24q2 2 20 5q23 4 40 5q8 1 21.5 2.5t18.5 1.5q17 1 22 6q3 3 6 21q4 23 5 40q1 8 2.5 21.5t1.5 18.5q1 17 6 22q8 8 23 12q24 6 37 8t37 4q18 2 26 -3v962h-277v-962h-266v962h-276v-962z" />
<glyph unicode="W" d="M111 420h133v-420h266v420h133v399h-133v-389h-123v819h-276v-829zM664 0h276v420h133v829h-276v-829h-133v-420z" />
<glyph unicode="X" d="M115 0h276v553h113q-5 -8 -3 -26q2 -24 4 -37q2 -10 8 -36q4 -17 11 -24q6 -6 25 -11q21 -5 40 -8q13 -2 41 -4q20 -1 27 3v-410h277v410q-8 -5 -26 -3q-24 2 -37 4q-10 2 -36 8q-17 4 -24 11q-4 1 -6 21q0 5 -1.5 18t-2.5 21q-1 18 -5 40q-3 16 -5 23q-7 7 -24 11 q-24 6 -37 8q-27 4 -37 5q-16 1 -25 -4v246q7 -4 25 -3q24 2 37 4t37 8q16 4 24 12q2 2 5 20q4 22 5 40q1 8 2.5 21.5t1.5 18.5q2 19 6 23q7 7 24 11q26 6 36 8q13 2 37 4q18 2 26 -3v266h-277v-409h-143v133h-123v276h-276v-266q7 4 25 3q24 -2 37 -4t37 -8q17 -4 24 -11 q2 -7 5 -23q4 -23 5 -40q1 -8 2.5 -21.5t1.5 -18.5q2 -19 6 -20q8 -8 24 -12q26 -6 36 -8q13 -2 37 -4q18 -2 26 3v-246q-9 5 -26 4q-10 -1 -37 -5q-10 -2 -36 -8q-17 -4 -24 -11q-4 -4 -6 -23q0 -5 -1.5 -18.5t-2.5 -21.5q-1 -16 -5 -39q-3 -19 -5 -21q-7 -7 -24 -11 q-24 -6 -37 -8t-37 -4q-18 -1 -25 3v-410z" />
<glyph unicode="Y" d="M111 686h133v-123h143v-563h266v563h144v123h133v563h-277v-553h-266v553h-276v-563z" />
<glyph unicode="Z" d="M115 0h819v133h-533v287h103q-4 7 -4 26q0 21 3 42q3 23 9 40q6 19 12 25q5 5 25 12q17 6 40 9q28 4 40 4q20 0 28 -5v103q8 -5 28 -3q28 2 41 4q19 3 40 8q19 5 25 11q2 2 5 21q4 23 5 40q1 8 2.5 21.5t1.5 18.5q1 17 6 22q7 7 24 11q4 1 11 3t13 3.5t12 2.5q13 2 37 4 q18 2 26 -3v409h-819v-133h532v-276q-7 4 -25 3q-24 -2 -37 -4q-3 0 -37 -9q-17 -4 -24 -11t-11 -23q-6 -24 -8 -37t-4 -37q-2 -18 3 -26q-9 2 -22 1q-20 -2 -31 -4q-19 -4 -31 -7q-15 -4 -19 -10t-9 -20q-6 -18 -8 -29q-4 -22 -5 -32q-2 -17 2 -22q-9 5 -26 4 q-10 -1 -37 -5q-10 -2 -36 -8q-17 -4 -24 -11q-4 -4 -6 -23q0 -5 -1.5 -18.5t-2.5 -21.5q-1 -16 -5 -39q-3 -19 -5 -21q-7 -7 -24 -11q-24 -6 -37 -8t-37 -4q-18 -1 -25 3v-410z" />
<glyph unicode="[" d="M248 -358h551v112h-267v1389h267v133h-551v-1634z" />
<glyph unicode="\" d="M168 1061l594 -1184l225 -6l-4 109l-643 1280l-172 4v-203z" />
<glyph unicode="]" d="M340 -270v-113h532v1659h-532v-133h246v-1413h-246z" />
<glyph unicode="^" d="M180 1100h246v123h246v-123h221v123h-98v123h-123v122h-246v-122h-123v-123h-123v-123z" />
<glyph unicode="_" d="M0 -324v-102h1126v102h-1126z" />
<glyph unicode="`" d="M313 1350h144v-144h121v-141h286v141h-143v287h-408v-143z" />
<glyph unicode="a" d="M121 143q7 4 25 3q24 -2 37 -4t37 -8q17 -4 24 -11t11 -24q6 -24 8 -37q2 -14 4 -36q2 -18 -3 -26h676v819q-8 -5 -26 -3q-22 2 -36 4q-13 2 -37 8q-16 4 -24 12q-7 7 -11 23q-6 24 -8 37t-4 37q-2 18 3 26h-533v-134h389v-266h-389q4 -7 3 -27q-2 -28 -4 -41 q-3 -19 -8 -40q-5 -19 -11 -25q-7 -7 -24 -11q-24 -6 -37 -8t-37 -4q-18 -1 -25 3v-267zM408 143v267h245v-267h-245z" />
<glyph unicode="b" d="M199 0h675q-5 8 -3 26q1 8 5 36q2 13 8 37q4 17 11 24t24 11q26 6 36 8q13 2 37 4q18 2 26 -3v676h-135v154h-408v276h-276v-1249zM485 143v676h246v-676h-246z" />
<glyph unicode="c" d="M115 143q7 4 25 3q24 -2 37 -4t37 -8q17 -4 24 -11t11 -24q6 -24 8 -37q2 -14 4 -36q2 -18 -3 -26h533q-5 9 -4 26q1 8 5 36q2 13 8 37q4 17 11 24t24 11q26 6 36 8q13 2 37 4q18 2 26 -3v123h-277v-123h-256v676h256v-123h277v123q-8 -5 -26 -3q-24 2 -37 4q-10 2 -36 8 q-16 4 -24 12q-7 7 -11 23q-6 24 -8 37q-4 27 -5 37q-1 17 4 26h-533q5 -8 3 -26q-2 -24 -4 -37t-8 -37q-4 -16 -11 -23q-8 -8 -24 -12q-24 -6 -37 -8t-37 -4q-18 -1 -25 3v-676z" />
<glyph unicode="d" d="M121 143q7 4 25 3q24 -2 37 -4t37 -8q17 -4 24 -11t11 -24q6 -24 8 -37q2 -14 4 -36q2 -18 -3 -26h676v1249h-276v-276h-400q5 -8 3 -28q-2 -28 -4 -41q-3 -19 -8 -40q-4 -17 -11 -24q-8 -8 -24 -12q-24 -6 -37 -8t-37 -4q-18 -1 -25 3v-676zM408 143v676h245v-676h-245z " />
<glyph unicode="e" d="M104 143q8 5 26 3q24 -2 37 -4t37 -8q16 -4 23 -11q8 -8 12 -24q6 -24 8 -37q2 -14 4 -36q2 -18 -3 -26h532v133h-389v287h533v399q-8 -5 -26 -3q-24 2 -37 4t-37 8q-15 4 -23 12q-7 7 -11 23q-9 34 -9 37q-2 13 -4 37q-2 18 3 26h-532q5 -8 3 -26q-2 -24 -4 -37t-8 -37 q-4 -15 -12 -23t-23 -12q-24 -6 -37 -8t-37 -4q-18 -2 -26 3v-676zM391 573v246h246v-246h-246z" />
<glyph unicode="f" d="M111 563h143v-563h266v563h428v125h-426v432h426v137h-547v-139h-147v-432h-143v-123z" />
<glyph unicode="g" d="M127 154q8 5 26 3q22 -2 36 -4q3 0 37 -9q17 -4 24 -11t11 -24q5 -21 8 -40q2 -13 4 -41q2 -20 -3 -28h389v-287h-532v-112h686v112h133v1260h-676q5 -8 3 -26q-2 -24 -4 -37t-8 -37q-4 -16 -11 -23t-24 -11q-34 -9 -37 -9q-14 -2 -36 -4q-18 -2 -26 3v-675zM414 154v675 h245v-675h-245z" />
<glyph unicode="h" d="M127 0h276v819h267v-819h276v819q-7 -4 -25 -3q-24 2 -37 4t-37 8q-16 4 -24 12q-7 7 -11 24q-5 21 -8 40q-2 13 -4 41q-2 20 3 28h-400v276h-276v-1249z" />
<glyph unicode="i" d="M121 0h819v133h-276v830h-543v-134h266v-696h-266v-133zM408 1126h245v226h-245v-226z" />
<glyph unicode="j" d="M121 -317v-113h543v113h133v1259h-533v-133h246v-1126h-389zM530 1106h267v225h-267v-225z" />
<glyph unicode="k" d="M127 0h276v410h113q-5 -8 -3 -26q2 -24 4 -37t8 -37q4 -15 12 -23t24 -12q21 -5 40 -8q13 -2 41 -4q20 -2 28 3v-266h276v266q-7 -4 -25 -3q-24 2 -37 4t-37 8q-16 4 -24 12q-4 1 -6 20q0 5 -1.5 18.5t-2.5 21.5q-1 17 -5 40q-3 16 -5 23q-7 7 -24 11q-24 6 -37 8 q-14 2 -36 4q-18 2 -26 -3v133h133v123h133v277h-276v-277h-133q4 -6 3 -22q-2 -24 -4 -35q-2 -9 -9 -34q-5 -16 -11 -22t-22 0q-7 3 -34 16l-34 17q-18 8 -23 8v635h-276v-1249z" />
<glyph unicode="l" d="M121 0h819v133h-276v1116h-543v-133h266v-983h-266v-133z" />
<glyph unicode="m" d="M121 0h276v819h123v-676h144v676h143v-819h276v819h-133v144h-829v-963z" />
<glyph unicode="n" d="M121 0h276v819h267v-819h276v819l-133 15v129h-686v-963z" />
<glyph unicode="o" d="M121 143q7 4 25 3q24 -2 37 -4t37 -8q17 -4 24 -11t11 -24q6 -24 8 -37q2 -14 4 -36q2 -18 -3 -26h533q-5 8 -3 26q2 22 4 36q2 13 8 37q4 17 11 24t24 11q24 6 37 8q14 2 36 4q18 2 26 -3v676q-8 -5 -26 -3q-22 2 -36 4q-13 2 -37 8q-16 4 -24 12q-7 7 -11 23 q-6 24 -8 37t-4 37q-2 18 3 26h-533q5 -8 3 -26q-2 -24 -4 -37t-8 -37q-4 -16 -11 -23q-8 -8 -24 -12q-24 -6 -37 -8t-37 -4q-18 -1 -25 3v-676zM408 143v676h245v-676h-245z" />
<glyph unicode="p" d="M115 -397h274v395h395q-5 8 -3 28q2 26 4 40q1 5 9 38q5 19 11 27q7 7 22 11q29 8 36 9q19 3 36 3t27 -2v667q-8 -5 -26 -3q-24 2 -37 4q-15 2 -36 8q-14 4 -22 12q-7 7 -11 23q-9 34 -9 37q-2 13 -4 37q-2 18 3 26h-669v-1360zM399 152v667h242v-667h-242z" />
<glyph unicode="q" d="M129 154q7 4 29 6q28 2 44 1t44 -3q19 -1 26 -8q8 -8 9 -28q1 -21 0 -45q0 -5 -6 -45q-3 -17 -5 -30h394v-397h276v1360h-670q3 -15 4 -31q2 -30 2 -47q0 -18 -2 -44q-2 -20 -8 -20q-14 0 -27 -1q-7 -1 -20.5 -1.5t-20.5 -0.5q-14 -1 -42 -1q-20 0 -27 4v-669zM412 154 v669h243v-669h-243z" />
<glyph unicode="r" d="M127 0h276v565l123 2l2 119h418v277h-276l2 -129h-144l-4 -148h-121v277h-276v-963z" />
<glyph unicode="s" d="M127 0h676q-5 8 -3 26q2 22 4 36q2 13 8 37q4 17 11 24t24 11q24 6 37 8t37 4q18 1 25 -3v267q-7 -4 -25 -3q-24 2 -37 4t-37 8q-17 4 -24 11q-6 6 -11 25q-5 21 -8 40q-2 13 -4 41q-2 20 3 27h-389v266h532v134h-676q5 -8 3 -26q-2 -24 -4 -37t-8 -37q-4 -16 -11 -23 q-8 -8 -24 -12q-24 -6 -37 -8q-14 -2 -36 -4q-18 -2 -26 3v-246q9 5 26 4q8 -1 36 -5q13 -2 37 -8q17 -4 24 -11q6 -6 11 -25q5 -21 8 -40q2 -13 4 -41q1 -19 -3 -27h389v-287h-532v-133z" />
<glyph unicode="t" d="M121 829h133v-686q8 5 28 3q28 -2 41 -4q16 -2 39 -8q19 -5 25 -11q7 -7 11 -24q9 -34 9 -37q2 -14 4 -36q2 -18 -3 -26h532v133h-410v696h410v144h-420v276h-266v-276h-133v-144z" />
<glyph unicode="u" d="M121 143q7 4 25 3q24 -2 37 -4t37 -8q17 -4 24 -11t11 -24q6 -24 8 -37q2 -14 4 -36q2 -18 -3 -26h676v963h-276v-820h-267v820h-276v-820z" />
<glyph unicode="v" d="M121 287q7 4 25 3q24 -2 37 -4t37 -8q16 -4 24 -12q3 -8 5 -22q4 -22 5 -40q1 -8 2.5 -21.5t1.5 -18.5q2 -20 6 -21q1 -4 21 -6q5 0 18.5 -1.5t21.5 -2.5q17 -1 40 -5q14 -2 22 -5q7 -7 11 -24q9 -34 9 -37q2 -14 4 -36q2 -18 -3 -26h245q-5 8 -3 26q2 22 4 36q0 3 9 37 q4 17 11 24q2 2 20 5q23 4 40 5q8 1 21.5 2.5t18.5 1.5q19 2 23 6q2 2 5 21q4 23 5 40q1 8 2.5 21.5t1.5 18.5q1 17 6 22q8 8 24 12q24 6 37 8q14 2 36 4q18 2 26 -3v676h-276v-676h-267v676h-276v-676z" />
<glyph unicode="w" d="M98 272h133v-272h265v272h131v539h-131v-526h-121v667h-277v-680zM647 0h275v272h131v680h-273v-680h-133v-272z" />
<glyph unicode="x" d="M121 0h276v266h267v-266h276v266q-8 -5 -26 -3q-22 2 -36 4q-13 2 -37 8q-16 4 -24 12q-4 1 -6 20q0 5 -1.5 18.5t-2.5 21.5q-1 17 -5 40q-3 16 -5 23q-7 7 -24 11q-24 6 -37 8t-37 4q-18 1 -25 -3v133h133v123h133v277h-276v-267h-267v267h-276v-277h133v-123h133v-133 q-8 5 -26 3q-22 -2 -36 -4q-13 -2 -37 -8q-17 -4 -24 -11q-4 -4 -6 -23q0 -5 -1.5 -18.5t-2.5 -21.5q-1 -17 -5 -40q-3 -18 -5 -20q-8 -8 -24 -12q-24 -6 -37 -8t-37 -4q-18 -1 -25 3v-266z" />
<glyph unicode="y" d="M45 -289v-112h543v102q8 -5 27 -3q28 2 41 4q19 3 40 8q19 5 25 11q2 2 5 21q4 22 5 40q1 8 2.5 21.5t1.5 18.5q1 17 6 22q8 8 25 12q21 5 40 8q13 2 41 4q19 2 27 -3v276h134v830h-277v-819h-266v819h-277v-819q8 5 26 3q24 -2 37 -4q3 0 37 -9q16 -4 23 -11 q8 -8 12 -25q6 -23 8 -39q2 -13 4 -41q2 -20 -3 -28h246v-143h-113v-144h-420z" />
<glyph unicode="z" d="M121 0h819v133h-532v143h102q-5 8 -3 28q2 28 4 41q3 19 8 40q5 19 11 25q2 2 21 5q22 4 40 5q8 1 21.5 2.5t18.5 1.5q17 1 22 6q2 2 5 21q6 34 6 39q1 8 2.5 21.5t1.5 18.5q2 19 6 23q7 7 24 11q21 5 40 8q28 4 41 5q19 1 28 -4v113h133v277h-819v-134h532v-143h-123 q2 -8 2 -22q0 -17 -3 -35q-3 -16 -8 -34q-5 -16 -11 -22q-5 -7 -18 -11q-20 -6 -31 -8q-10 -2 -32 -4q-15 -2 -21 3q5 -8 3 -26q-2 -24 -4 -37q-1 -6 -2.5 -12t-3.5 -13t-3 -11q-4 -17 -11 -24q-5 -5 -22 -6q-5 0 -18.5 -1.5t-21.5 -2.5q-18 -1 -40 -5q-19 -3 -21 -5 q-4 -4 -6 -23q0 -5 -1.5 -18.5t-2.5 -21.5q-1 -17 -5 -40q-3 -18 -5 -20q-8 -8 -24 -12q-24 -6 -37 -8t-37 -4q-18 -1 -25 3v-266z" />
<glyph unicode="{" d="M92 477h135v-153h142v-420h123v-133h276v133h-133v420h-139v153h-117v133h123v133h133v408h133v133h-276v-133h-123v-408h-144v-133h-133v-133z" />
<glyph unicode="|" d="M467 -408h246v1659h-246v-1659z" />
<glyph unicode="}" d="M203 1157h145v-409h160l4 -156h123v-133h-121v-154h-162v-430h-145v-133h285v143h153v410h148v164h129v133h-134v156h-143v409h-158v133h-284v-133z" />
<glyph unicode="~" d="M2 866h125v133h137v140h158v-140h123v-133h442v133h121v277h-123v-129h-164v-137h-123v139h-163v145h-400v-153h-133v-275z" />
<glyph d="M406 682v412h139v135h270v-135h-139v-140h139v-272h-409z" />
<glyph d="M410 682v139h135v137h-135v271h409v-408h-137v-139h-272z" />
<glyph unicode="&#xa0;" />
<glyph unicode="&#xa1;" d="M272 137h138v273h270v-273h139v-409h-137v-138h-272v138h-138v409zM410 547v272h272v-272h-272z" />
<glyph unicode="&#xa2;" d="M137 272v547h133v139h140v271h272v-273h135v-137h137v-137h-272v137h-272v-547h270v138h272v-136h-133v-135h-137v-276h-272v276h-138v133h-135z" />
<glyph unicode="&#xa3;" d="M0 0v272h137v277h-137v133h137v410h135v137h547v-135h135v-138h-272v136h-272v-410h409v-133h-411v-275h-136v-137h684v-137h-956z" />
<glyph unicode="&#xa4;" d="M137 272v138h135v137h-135v272h135v137h-135v136h271v-136h274v136h274v-136h-137v-137h135v-272h-137v-135h139v-140h-274v140h-272v-140h-273zM410 547h272v272h-272v-272z" />
<glyph unicode="&#xa5;" d="M137 272v138h273v137h-273v135h133v139h-133v408h271v-408h274v408h272v-408h-135v-139h135v-135h-272v-137h270v-138h-270v-272h-272v272h-273z" />
<glyph unicode="&#xa6;" d="M410 272h272v-682h-272v682zM410 547v682h272v-682h-272z" />
<glyph unicode="&#xa7;" d="M180 -74v-139h123v-135h492v135h123v279h-123v258h123v245h-123v123h-123v123h-246v246h246v-123h246v123h-123v123h-492v-123h-123v-246h123v-246h-123v-245h123v-123h123v-135h246v-279h-246v139h-246zM426 324v245h246v-245h-246z" />
<glyph unicode="&#xa8;" d="M137 1092v274h273v-274h-273zM682 1092v274h274v-274h-274z" />
<glyph unicode="&#xa9;" d="M0 137v955h135v137h817v-137h140v-955h-138v-137h-817v137h-137zM137 274h135v-135h547v135h137v687h-137v133h-549v-136h-133v-684zM272 410v409h138v137h270v-137h139v-137h-137v139h-272v-411h-138zM410 274v136h272v137h137v-135h-139v-138h-270z" />
<glyph unicode="&#xaa;" d="M137 272v138h819v-138h-819zM137 682v137h133v137h412v136h-408v139h545v-139h137v-545h-686v135h-133zM410 682h272v137h-272v-137z" />
<glyph unicode="&#xab;" d="M-2 274v136h137v137h135v137h275v-135h-139v-135h-136v-140h136v-137h139v-135h-273v137h-137v135h-137zM547 274v136h135v135h137v139h273v-133h-138v-137h-135v-140h131v-135h142v-139h-273v137h-139v137h-133z" />
<glyph unicode="&#xac;" d="M137 547v135h819v-410h-276v275h-543z" />
<glyph unicode="&#xad;" d="M135 549v133h819v-133h-819z" />
<glyph unicode="&#xae;" d="M0 137v955h137v137h815v-137h140v-955h-138v-137h-819v137h-135zM137 274h135v-135h547v135h135v682h-135v136h-547v-136h-135v-682zM270 272v684h410v-137h139v-272h-137v272h-272v-270h270v-139h137v-136h-137v138h-272v-140h-138z" />
<glyph unicode="&#xaf;" d="M0 1503v135h1090v-135h-1090z" />
<glyph unicode="&#xb0;" d="M162 940h137v-129h555v129h129v260h-129v129h-555v-129h-137v-260zM440 940v260h285v-260h-285z" />
<glyph unicode="&#xb1;" d="M137 0v139h817v-139h-817zM137 547v135h273v274h272v-274h272v-135h-272v-275h-272v275h-273z" />
<glyph unicode="&#xb2;" d="M272 547v272h138v137h137v136h-275v137h410v-137h137v-136h-139v-135h-133v-139h272v-135h-547z" />
<glyph unicode="&#xb3;" d="M272 547v135h275v139h-137v135h137v136h-275v137h410v-137h137v-134h-137v-137h135v-137h-135v-137h-410z" />
<glyph unicode="&#xb4;" d="M311 1065v141h144v287h407v-143h-143v-144h-121v-141h-287z" />
<glyph unicode="&#xb5;" d="M0 -272h137v1228h271v-819h274v819h270v-819h140v-137h-273v139h-137v-139h-272v-270h-138v-140h-272v138z" />
<glyph unicode="&#xb6;" d="M137 547v409h135v136h138v137h682v-137h-138v-1502h-272v682h-272v138h-138v137h-135z" />
<glyph unicode="&#xb7;" d="M410 547v272h409v-272h-409z" />
<glyph unicode="&#xb8;" d="M272 -272h275v135h-137v137h270v-137h139v-133h-137v-140h-410v138z" />
<glyph unicode="&#xb9;" d="M272 956v138h138v135h272v-682h-272v409h-138z" />
<glyph unicode="&#xba;" d="M137 272v138h817v-138h-817zM141 682h133v-135h549v135h135v410h-135v137h-547v-135h-135v-412zM410 682v410h272v-410h-272z" />
<glyph unicode="&#xbb;" d="M-2 0h272v137h140v137h133v136h-135v135h-138v139h-272v-133h137v-137h135v-140h-131v-135h-141v-139zM545 2h272v137h137v135h138v136h-138v137h-135v137h-274v-135h139v-135h135v-140h-135v-137h-139v-135z" />
<glyph unicode="&#xbc;" d="M0 137v135h135v138h137v137h138v135h-275v410h-135v139h137v135h271v-684h139v139h135v135h135v136h275v-134h-140v-137h-135v-137h-135v-137h410v-684h-273v137h-409v272h-140v-135h-270zM410 272h137v138h-137v-138zM547 410h135v137h-135v-137zM682 137h137v135h-137 v-135z" />
<glyph unicode="&#xbd;" d="M0 137v135h135v138h137v137h138v135h-275v410h-135v139h137v135h271v-684h139v139h135v135h135v136h275v-134h-140v-137h-135v-137h-135v-137h270v-135h138v-138h-138v-135h-133v-139h273v-137h-547v276h135v135h137v138h-407v-140h-140v-135h-270z" />
<glyph unicode="&#xbe;" d="M0 137v135h135v138h137v137h138v135h-410v139h270v137h-135v134h137v139h-272v135h408v-137h137v-135h-137v-138h137v-135h-137v-139h139v139h135v135h135v136h275v-134h-140v-137h-135v-137h-135v-137h408v-684h-271v135h-409v276h137v136h135v137h-137v-135h-135v-140 h-140v-135h-270zM682 137h137v135h-137v-135z" />
<glyph unicode="&#xbf;" d="M141 -6v-266q8 5 26 3q24 -2 37 -4q3 0 37 -9q16 -4 23 -11t11 -23q9 -34 9 -37q2 -13 4 -37q2 -18 -3 -26h532q-5 8 -3 26q2 24 4 37t8 37q4 15 12 23q7 7 23 11q34 9 37 9q13 2 37 4q18 2 26 -3v266h-277v-266h-256v266q8 -5 26 -3q22 2 36 4q13 2 37 8q17 4 24 11 q6 6 11 25q5 21 8 40q2 13 4 41q2 20 -3 27h103v256h-256v-245q-8 5 -28 3q-28 -2 -41 -4q-9 -1 -40 -9q-17 -4 -24 -11q-2 -2 -5 -20q-6 -33 -6 -40q-1 -8 -2.5 -21.5t-1.5 -18.5q-2 -19 -6 -23q-7 -7 -23 -11q-24 -6 -37 -8t-37 -4q-18 -2 -26 3zM426 553h246v266h-246 v-266z" />
<glyph unicode="&#xc0;" d="M121 0h276v410h267v-410h276v963q-9 -5 -26 -4q-8 1 -36 5q-13 2 -37 8q-17 4 -24 11q-4 1 -6 21q0 5 -1.5 18t-2.5 21q-1 17 -5 40q-3 16 -5 23q-7 2 -23 5q-22 4 -40 5q-8 1 -21.5 2.5t-18.5 1.5q-19 2 -20 6q-7 7 -11 24q-9 34 -9 37q-2 13 -4 37q-1 18 3 25h-245 q4 -7 3 -25q-2 -24 -4 -37q0 -3 -9 -37q-4 -17 -11 -24q-5 -5 -22 -6q-5 0 -18.5 -1.5t-21.5 -2.5q-18 -1 -40 -5q-19 -3 -21 -5q-4 -4 -6 -23q0 -5 -1.5 -18.5t-2.5 -21.5q-1 -16 -5 -39q-3 -19 -5 -21q-7 -7 -24 -11q-24 -6 -37 -8q-27 -4 -37 -5q-16 -1 -25 4v-963z M264 1507v138h273v-138h135v-137h-273v137h-135zM408 573v390h245v-390h-245z" />
<glyph unicode="&#xc1;" d="M121 0h276v410h267v-410h276v963q-9 -5 -26 -4q-8 1 -36 5q-13 2 -37 8q-17 4 -24 11q-4 1 -6 21q0 5 -1.5 18t-2.5 21q-1 17 -5 40q-3 16 -5 23q-7 2 -23 5q-22 4 -40 5q-8 1 -21.5 2.5t-18.5 1.5q-19 2 -20 6q-7 7 -11 24q-9 34 -9 37q-2 13 -4 37q-1 18 3 25h-245 q4 -7 3 -25q-2 -24 -4 -37q0 -3 -9 -37q-4 -17 -11 -24q-5 -5 -22 -6q-5 0 -18.5 -1.5t-21.5 -2.5q-18 -1 -40 -5q-19 -3 -21 -5q-4 -4 -6 -23q0 -5 -1.5 -18.5t-2.5 -21.5q-1 -16 -5 -39q-3 -19 -5 -21q-7 -7 -24 -11q-24 -6 -37 -8q-27 -4 -37 -5q-16 -1 -25 4v-963z M406 1372v137h133v136h274v-134h-139v-139h-268zM408 573v390h245v-390h-245z" />
<glyph unicode="&#xc2;" d="M121 0h276v410h267v-410h276v963q-9 -5 -26 -4q-8 1 -36 5q-13 2 -37 8q-17 4 -24 11q-4 1 -6 21q0 5 -1.5 18t-2.5 21q-1 17 -5 40q-3 16 -5 23q-7 2 -23 5q-22 4 -40 5q-8 1 -21.5 2.5t-18.5 1.5q-19 2 -20 6q-7 7 -11 24q-9 34 -9 37q-2 13 -4 37q-1 18 3 25h-245 q4 -7 3 -25q-2 -24 -4 -37q0 -3 -9 -37q-4 -17 -11 -24q-5 -5 -22 -6q-5 0 -18.5 -1.5t-21.5 -2.5q-18 -1 -40 -5q-19 -3 -21 -5q-4 -4 -6 -23q0 -5 -1.5 -18.5t-2.5 -21.5q-1 -16 -5 -39q-3 -19 -5 -21q-7 -7 -24 -11q-24 -6 -37 -8q-27 -4 -37 -5q-16 -1 -25 4v-963z M131 1372v135h135v138h547v-136h137v-139h-274v137h-273v-135h-272zM408 573v390h245v-390h-245z" />
<glyph unicode="&#xc3;" d="M121 0h276v410h267v-410h276v963q-9 -5 -26 -4q-8 1 -36 5q-13 2 -37 8q-17 4 -24 11q-4 1 -6 21q0 5 -1.5 18t-2.5 21q-1 17 -5 40q-3 16 -5 23q-7 2 -23 5q-22 4 -40 5q-8 1 -21.5 2.5t-18.5 1.5q-19 2 -20 6q-7 7 -11 24q-9 34 -9 37q-2 13 -4 37q-1 18 3 25h-245 q4 -7 3 -25q-2 -24 -4 -37q0 -3 -9 -37q-4 -17 -11 -24q-5 -5 -22 -6q-5 0 -18.5 -1.5t-21.5 -2.5q-18 -1 -40 -5q-19 -3 -21 -5q-4 -4 -6 -23q0 -5 -1.5 -18.5t-2.5 -21.5q-1 -16 -5 -39q-3 -19 -5 -21q-7 -7 -24 -11q-24 -6 -37 -8q-27 -4 -37 -5q-16 -1 -25 4v-963z M129 1374v133h135v138h410v-136h137v136h270v-138h-137v-133h-405v133h-138v-133h-272zM408 573v390h245v-390h-245z" />
<glyph unicode="&#xc4;" d="M117 1313h274v264h-274v-264zM131 -2h275v369h284v-369h275v905h-136v141h-139v136h-284v-136h-140v-141h-135v-905zM406 489v414h284v-414h-284zM676 1313h274v264h-274v-264z" />
<glyph unicode="&#xc5;" d="M121 0h276v410h267v-410h276v963q-9 -5 -26 -4q-8 1 -36 5q-13 2 -37 8q-17 4 -24 11q-4 1 -6 21q0 5 -1.5 18t-2.5 21q-1 17 -5 40q-3 16 -5 23q-7 2 -23 5q-22 4 -40 5q-8 1 -21.5 2.5t-18.5 1.5q-19 2 -20 6q-7 7 -11 24q-9 34 -9 37q-2 13 -4 37q-1 9 37.5 12 t117.5 1v145h135v129h-133v136h-543v-134h-139v-131h133v-141q78 0 116 -4t37 -13q-2 -24 -4 -37q0 -3 -9 -37q-4 -17 -11 -24q-5 -5 -22 -6q-5 0 -18.5 -1.5t-21.5 -2.5q-18 -1 -40 -5q-19 -3 -21 -5q-4 -4 -6 -23q0 -5 -1.5 -18.5t-2.5 -21.5q-1 -16 -5 -39q-3 -19 -5 -21 q-7 -7 -24 -11q-24 -6 -37 -8q-27 -4 -37 -5q-16 -1 -25 4v-963zM397 1378v135h273v-135h-273zM408 573v390h245v-390h-245z" />
<glyph unicode="&#xc6;" d="M137 0v819h133v137h138v136h139v137h545v-137h-273v-408h271v-135h-271v-412h271v-137h-543v412h-139v-412h-271zM410 547h137v272h-137v-272z" />
<glyph unicode="&#xc7;" d="M121 143q7 4 25 3q24 -2 37 -4t37 -8q17 -4 24 -11t11 -24q6 -24 8 -37q2 -14 4 -36q2 -18 -3 -26h131v-135h148v-133h-281v-140h418v140h135v131h-137v137h119q-5 8 -3 26q2 22 4 36q2 13 8 37q4 17 11 24t24 11q24 6 37 8q14 2 36 4q18 2 26 -3v267h-276v-267h-256v963 h256v-266h276v266q-8 -5 -26 -3q-22 2 -36 4q-13 2 -37 8q-17 4 -24 11t-11 24q-6 24 -8 37t-4 37q-1 18 3 25h-533q4 -7 3 -25q-2 -24 -4 -37t-8 -37q-4 -17 -11 -24t-24 -11q-24 -6 -37 -8t-37 -4q-18 -1 -25 3v-963z" />
<glyph unicode="&#xc8;" d="M121 0h819v133h-532v430h389v123h-389v430h532v133h-819v-1249zM260 1516v133h268v-131h138v-129h-275v127h-131z" />
<glyph unicode="&#xc9;" d="M121 0h819v133h-532v430h389v123h-389v430h532v133h-819v-1249zM395 1374v135h137v136h271v-136h-135v-135h-273z" />
<glyph unicode="&#xca;" d="M121 0h819v133h-532v430h389v123h-389v430h532v133h-819v-1249zM127 1378v138h137v135h543v-135h137v-136h-270v133h-275v-135h-272z" />
<glyph unicode="&#xcb;" d="M121 0h819v133h-532v430h389v123h-389v430h532v133h-819v-1249zM127 1380v273h270v-273h-270zM668 1378v273h270v-273h-270z" />
<glyph unicode="&#xcc;" d="M254 0h532v133h-122v983h122v133h-532v-133h123v-983h-123v-133zM260 1516v135h272v-138h136v-133h-273v136h-135z" />
<glyph unicode="&#xcd;" d="M254 0h532v133h-122v983h122v133h-532v-133h123v-983h-123v-133zM397 1376v133h138v140h270v-138h-135v-135h-273z" />
<glyph unicode="&#xce;" d="M119 1386v134h135v137h545v-135h137v-136h-272v136h-275v-136h-270zM254 0h532v133h-122v983h122v133h-532v-133h123v-983h-123v-133z" />
<glyph unicode="&#xcf;" d="M113 1397v268h272v-268h-272zM254 0h532v133h-122v983h122v133h-532v-133h123v-983h-123v-133zM659 1393v270h271v-270h-271z" />
<glyph unicode="&#xd0;" d="M0 565h111v-565h532q-5 8 -3 26q2 22 4 36q2 13 8 37q4 16 12 24q2 2 20 5q23 4 40 5q8 1 21.5 2.5t18.5 1.5q17 1 22 6q3 3 6 21q4 23 5 40q1 8 2.5 21.5t1.5 18.5q1 17 6 22q8 8 23 12q24 6 37 8t37 4q18 2 26 -3v676q-9 -5 -26 -4q-10 1 -37 5q-13 2 -37 8 q-16 4 -23 11q-4 1 -6 21q0 5 -1.5 18t-2.5 21q-1 17 -5 40q-2 10 -6 23q-8 3 -22 5q-23 4 -40 5q-8 1 -21.5 2.5t-18.5 1.5q-19 2 -20 6q-8 8 -12 24q-6 24 -8 37t-4 37q-1 18 3 25l-530 2v-555h-113v-131zM397 143v420h138v133h-138v410h103q-5 -8 -3 -26q2 -24 4 -37 q2 -10 8 -36q4 -17 11 -24t24 -11q24 -6 37 -8q28 -4 36 -5q17 -1 26 4v-676q-8 5 -26 3q-22 -2 -36 -4q-3 0 -37 -9q-17 -4 -24 -11t-11 -23q-6 -24 -8 -37t-4 -37q-2 -18 3 -26h-103z" />
<glyph unicode="&#xd1;" d="M129 0h277v637q4 0 22 8l34 16q33 14 34 14q17 5 22 1q7 -5 11 -19l9 -30q2 -10 4 -32q2 -16 -3 -22q9 5 25 4q10 -1 37 -5q13 -2 37 -8q17 -4 24 -11q2 -7 5 -23q4 -22 5 -40q1 -8 2.5 -21t1.5 -18q2 -20 6 -21q6 -6 25 -11q23 -6 39 -8q13 -2 41 -4q20 -2 28 3v-410 h277v1249h-277v-553h-133q5 8 3 26q-2 24 -4 37t-8 37q-4 16 -11 23q-7 2 -23 5q-23 4 -40 5l-21 3t-19 2q-19 2 -20 6q-8 8 -12 24q-5 21 -8 40q-2 13 -4 41q-2 20 3 28h-112v276h-277v-1249zM133 1368v135h137v135h412v-135h135l2 135h271v-135h-136v-135h-407v135h-139 v-135h-275z" />
<glyph unicode="&#xd2;" d="M154 141q7 4 25 3q24 -2 37 -4t37 -8q16 -4 23 -11q8 -8 12 -24q6 -24 8 -37q2 -14 4 -36q2 -18 -3 -26h532q-5 8 -3 26q2 22 4 36q0 3 9 37q4 17 11 24t23 11q24 6 37 8t37 4q18 2 26 -3v963q-8 -5 -26 -3q-24 2 -37 4t-37 8q-16 4 -23 11t-11 24q-9 34 -9 37 q-2 13 -4 37q-1 18 3 25h-532q4 -7 3 -25q-2 -24 -4 -37t-8 -37q-4 -16 -12 -24q-7 -7 -23 -11q-24 -6 -37 -8t-37 -4q-18 -1 -25 3v-963zM291 1520v135h272v-135h137v-140h-272v140h-137zM440 141v963h246v-963h-246z" />
<glyph unicode="&#xd3;" d="M154 141q7 4 25 3q24 -2 37 -4t37 -8q16 -4 23 -11q8 -8 12 -24q6 -24 8 -37q2 -14 4 -36q2 -18 -3 -26h532q-5 8 -3 26q2 22 4 36q0 3 9 37q4 17 11 24t23 11q24 6 37 8t37 4q18 2 26 -3v963q-8 -5 -26 -3q-24 2 -37 4t-37 8q-16 4 -23 11t-11 24q-9 34 -9 37 q-2 13 -4 37q-1 18 3 25h-532q4 -7 3 -25q-2 -24 -4 -37t-8 -37q-4 -16 -12 -24q-7 -7 -23 -11q-24 -6 -37 -8t-37 -4q-18 -1 -25 3v-963zM428 1380v133h137v138h271v-135h-136v-136h-272zM440 141v963h246v-963h-246z" />
<glyph unicode="&#xd4;" d="M154 141q7 4 25 3q24 -2 37 -4t37 -8q16 -4 23 -11q8 -8 12 -24q6 -24 8 -37q2 -14 4 -36q2 -18 -3 -26h532q-5 8 -3 26q2 22 4 36q0 3 9 37q4 17 11 24t23 11q24 6 37 8t37 4q18 2 26 -3v963q-8 -5 -26 -3q-24 2 -37 4t-37 8q-16 4 -23 11t-11 24q-9 34 -9 37 q-2 13 -4 37q-1 18 3 25h-532q4 -7 3 -25q-2 -24 -4 -37t-8 -37q-4 -16 -12 -24q-7 -7 -23 -11q-24 -6 -37 -8t-37 -4q-18 -1 -25 3v-963zM154 1384v134h135v137h545v-139h135v-134h-271v138h-272v-136h-272zM440 141v963h246v-963h-246z" />
<glyph unicode="&#xd5;" d="M147 1382v134h136v137h409v-135h137v135h271v-135h-135v-136h-408v134h-137v-134h-273zM154 141q7 4 25 3q24 -2 37 -4t37 -8q16 -4 23 -11q8 -8 12 -24q6 -24 8 -37q2 -14 4 -36q2 -18 -3 -26h532q-5 8 -3 26q2 22 4 36q0 3 9 37q4 17 11 24t23 11q24 6 37 8t37 4 q18 2 26 -3v963q-8 -5 -26 -3q-24 2 -37 4t-37 8q-16 4 -23 11t-11 24q-9 34 -9 37q-2 13 -4 37q-1 18 3 25h-532q4 -7 3 -25q-2 -24 -4 -37t-8 -37q-4 -16 -12 -24q-7 -7 -23 -11q-24 -6 -37 -8t-37 -4q-18 -1 -25 3v-963zM440 141v963h246v-963h-246z" />
<glyph unicode="&#xd6;" d="M117 1313h274v264h-274v-264zM121 129h123v-123h571v123h123v915h-123v144h-571v-144h-123v-915zM399 129v915h293v-915h-293zM676 1313h274v264h-274v-264z" />
<glyph unicode="&#xd7;" d="M137 139h133v133h140v140h272v-138h135v-135h135v271h-135v137h-137v137h139v135h135v275h-135v-138h-137v-137h-274v139h-138v136h-133v-273h135v-137h136v-137h-138v-137h-133v-271z" />
<glyph unicode="&#xd8;" d="M137 0v1094h135v135l682 2v-1094h-135v-137h-682zM408 682h137v274h135v136h-272v-410zM410 137h272v412h-135v-277h-137v-135z" />
<glyph unicode="&#xd9;" d="M115 143q7 4 25 3q24 -2 37 -4t37 -8q17 -4 24 -11t11 -24q6 -24 8 -37q2 -14 4 -36q2 -18 -3 -26h533q-5 9 -4 26q1 8 5 36q2 13 8 37q4 17 11 24t24 11q26 6 36 8q13 2 37 4q18 2 26 -3v1106h-277v-1106h-266v1106h-276v-1106zM254 1524v133h272v-133h133v-138h-268 v138h-137z" />
<glyph unicode="&#xda;" d="M115 143q7 4 25 3q24 -2 37 -4t37 -8q17 -4 24 -11t11 -24q6 -24 8 -37q2 -14 4 -36q2 -18 -3 -26h533q-5 9 -4 26q1 8 5 36q2 13 8 37q4 17 11 24t24 11q26 6 36 8q13 2 37 4q18 2 26 -3v1106h-277v-1106h-266v1106h-276v-1106zM393 1386v136h137v135h273v-135h-139 v-136h-271z" />
<glyph unicode="&#xdb;" d="M115 143q7 4 25 3q24 -2 37 -4t37 -8q17 -4 24 -11t11 -24q6 -24 8 -37q2 -14 4 -36q2 -18 -3 -26h533q-5 9 -4 26q1 8 5 36q2 13 8 37q4 17 11 24t24 11q26 6 36 8q13 2 37 4q18 2 26 -3v1106h-277v-1106h-266v1106h-276v-1106zM121 1386v136h133v135h549v-135h133v-133 h-270v133h-271v-136h-274z" />
<glyph unicode="&#xdc;" d="M117 1313h274v264h-274v-264zM121 121h123v-123h575v123h123v1050h-246v-1050h-305v1050h-270v-1050zM676 1313h274v264h-274v-264z" />
<glyph unicode="&#xdd;" d="M111 686h133v-123h143v-563h266v563h144v123h133v563h-277v-553h-266v553h-276v-563zM387 1389v133h139v137h271v-135h-135v-135h-275z" />
<glyph unicode="&#xde;" d="M137 0v1229h273v-271h407v-139h135v-407h-135v-138h-407v-274h-273zM410 410h272v409h-272v-409z" />
<glyph unicode="&#xdf;" d="M160 -2h246v1059h122v-418h123v-518h-123v-123h246v123h123v518h-123v418h-123v123h-368v-123h-123v-1059z" />
<glyph unicode="&#xe0;" d="M121 143q7 4 25 3q24 -2 37 -4t37 -8q17 -4 24 -11t11 -24q6 -24 8 -37q2 -14 4 -36q2 -18 -3 -26h676v819q-8 -5 -26 -3q-22 2 -36 4q-13 2 -37 8q-16 4 -24 12q-7 7 -11 23q-6 24 -8 37t-4 37q-2 18 3 26h-533v-134h389v-266h-389q4 -7 3 -27q-2 -28 -4 -41 q-3 -19 -8 -40q-5 -19 -11 -25q-7 -7 -24 -11q-24 -6 -37 -8t-37 -4q-18 -1 -25 3v-267zM129 1376v133h406v-272h135v-137h-273v137h-135v139h-133zM408 143v267h245v-267h-245z" />
<glyph unicode="&#xe1;" d="M121 143q7 4 25 3q24 -2 37 -4t37 -8q17 -4 24 -11t11 -24q6 -24 8 -37q2 -14 4 -36q2 -18 -3 -26h676v819q-8 -5 -26 -3q-22 2 -36 4q-13 2 -37 8q-16 4 -24 12q-7 7 -11 23q-6 24 -8 37t-4 37q-2 18 3 26h-533v-134h389v-266h-389q4 -7 3 -27q-2 -28 -4 -41 q-3 -19 -8 -40q-5 -19 -11 -25q-7 -7 -24 -11q-24 -6 -37 -8t-37 -4q-18 -1 -25 3v-267zM397 1104v137h138v272h405l2 -133h-137v-137h-135v-139h-273zM408 143v267h245v-267h-245z" />
<glyph unicode="&#xe2;" d="M121 143q7 4 25 3q24 -2 37 -4t37 -8q17 -4 24 -11t11 -24q6 -24 8 -37q2 -14 4 -36q2 -18 -3 -26h676v819q-8 -5 -26 -3q-22 2 -36 4q-13 2 -37 8q-16 4 -24 12q-7 7 -11 23q-6 24 -8 37t-4 37q-2 18 3 26h-533v-134h389v-266h-389q4 -7 3 -27q-2 -28 -4 -41 q-3 -19 -8 -40q-5 -19 -11 -25q-7 -7 -24 -11q-24 -6 -37 -8t-37 -4q-18 -1 -25 3v-267zM125 1104v135h137v137h135v135h273v-135h137v-135h137v-139h-272v139h-275v-137h-272zM408 143v267h245v-267h-245z" />
<glyph unicode="&#xe3;" d="M0 1100v272h137v137h410v-137h135v-137h135v137h135v135h138v-270h-138v-139h-405v137h-137v137h-140v-135h-135v-137h-135zM121 143q7 4 25 3q24 -2 37 -4t37 -8q17 -4 24 -11t11 -24q6 -24 8 -37q2 -14 4 -36q2 -18 -3 -26h676v819q-8 -5 -26 -3q-22 2 -36 4 q-13 2 -37 8q-16 4 -24 12q-7 7 -11 23q-6 24 -8 37t-4 37q-2 18 3 26h-533v-134h389v-266h-389q4 -7 3 -27q-2 -28 -4 -41q-3 -19 -8 -40q-5 -19 -11 -25q-7 -7 -24 -11q-24 -6 -37 -8t-37 -4q-18 -1 -25 3v-267zM408 143v267h245v-267h-245z" />
<glyph unicode="&#xe4;" d="M156 121h123v-123h659v780h-123v123h-536v-123h413v-289h-413v-122h-123v-246zM166 1067h246v246h-246v-246zM418 121v246h274v-246h-274zM657 1067h246v246h-246v-246z" />
<glyph unicode="&#xe5;" d="M121 143q7 4 25 3q24 -2 37 -4t37 -8q17 -4 24 -11t11 -24q6 -24 8 -37q2 -14 4 -36q2 -18 -3 -26h676v819q-8 -5 -26 -3q-22 2 -36 4q-13 2 -37 8q-16 4 -24 12q-7 7 -11 23q-6 24 -8 37t-4 37q-2 18 3 26h-533v-134h389v-266h-389q4 -7 3 -27q-2 -28 -4 -41 q-3 -19 -8 -40q-5 -19 -11 -25q-7 -7 -24 -11q-24 -6 -37 -8t-37 -4q-18 -1 -25 3v-267zM123 1243h133v-137h549v139h135v135h-137v136h-545v-136h-135v-137zM397 1376h273v-137h-271zM408 143v267h245v-267h-245z" />
<glyph unicode="&#xe6;" d="M0 139v273h135v137h275v272h-273v137h271v-137h137v137h407v-137h140v-409h-410v-273h408v-139h-408v139h-135v-139h-410v139h-137zM272 137h138v273h-138v-273zM682 547h137v272h-137v-272z" />
<glyph unicode="&#xe7;" d="M115 143q7 4 25 3q24 -2 37 -4t37 -8q17 -4 24 -11t11 -24q6 -24 8 -37q2 -14 4 -36q2 -18 -3 -26h137v-131h140v-129h-267v-141h406v141h135v127h-135v137h114q-2 7 -1 22q1 8 5 36q2 13 8 37q4 17 11 24t24 11q26 6 36 8q13 2 37 4q18 2 26 -3v123h-277v-123h-256v676 h256v-123h277v123q-8 -5 -26 -3q-24 2 -37 4q-10 2 -36 8q-16 4 -24 12q-7 7 -11 23q-6 24 -8 37q-4 27 -5 37q-1 17 4 26h-533q5 -8 3 -26q-2 -24 -4 -37t-8 -37q-4 -16 -11 -23q-8 -8 -24 -12q-24 -6 -37 -8t-37 -4q-18 -1 -25 3v-676z" />
<glyph unicode="&#xe8;" d="M137 137v682h135v137h547v-137h135v-409h-544v-273h407v-139h-545v139h-135zM137 1366v137h408v-274h137v-137h-274v137h-136v137h-135zM410 547h272v272h-272v-272z" />
<glyph unicode="&#xe9;" d="M137 137v684h135v135h547v-137h137v-409h-546v-273h407v-139h-545v139h-135zM410 547h272v272h-272v-272zM410 1092v137h137v272h405v-133h-133v-137h-137v-139h-272z" />
<glyph unicode="&#xea;" d="M137 137v684h135v135h547v-137h137v-409h-546v-273h407v-135h-545v135h-135zM137 1092v139h135v135h138v135h270v-135h139v-135h135v-137h-274v135h-270v-137h-273zM410 547h272v272h-272v-272z" />
<glyph unicode="&#xeb;" d="M137 137v684h135v135h545v-137h139v-409h-546v-273h407v-135h-545v135h-135zM137 1092v274h273v-274h-273zM410 547h272v272h-272v-272zM682 1092v274h274v-274h-274z" />
<glyph unicode="&#xec;" d="M121 0h819v133h-276v830h-543v-134h266v-696h-266v-133zM123 1376h137v-137h137v-139h273v137h-138v272h-409v-133z" />
<glyph unicode="&#xed;" d="M121 0h819v133h-276v830h-543v-134h266v-696h-266v-133zM391 1104h271v137h137v137h137v133h-410v-270h-135v-137z" />
<glyph unicode="&#xee;" d="M121 0h819v133h-276v830h-543v-134h266v-696h-266v-133zM121 1100h272v139h273v-137h274v135h-135v137h-137v135h-275v-135h-137v-137h-135v-137z" />
<glyph unicode="&#xef;" d="M119 1100h274v276h-274v-276zM121 0h819v133h-276v830h-543v-134h266v-696h-266v-133zM662 1100h274v276h-274v-276z" />
<glyph unicode="&#xf0;" d="M137 137h135v-137h547v139h133v682h-133v135h-139v138h272v135h-272v-137h-135v137h-273v-137h138v-136h-273v-137h273v-137h-273v-545zM410 137v547h272v-547h-272zM410 819h137v137h-137v-137z" />
<glyph unicode="&#xf1;" d="M-2 1096v274h137v137h410v-135h135v-137h139v135h135v137h138v-272h-138v-139h-407v137h-137v137h-140v-135h-135v-139h-137zM121 0h276v819h267v-819h276v819l-133 15v129h-686v-963z" />
<glyph unicode="&#xf2;" d="M121 143q7 4 25 3q24 -2 37 -4t37 -8q17 -4 24 -11t11 -24q6 -24 8 -37q2 -14 4 -36q2 -18 -3 -26h533q-5 8 -3 26q2 22 4 36q2 13 8 37q4 17 11 24t24 11q24 6 37 8q14 2 36 4q18 2 26 -3v676q-8 -5 -26 -3q-22 2 -36 4q-13 2 -37 8q-16 4 -24 12q-7 7 -11 23 q-6 24 -8 37t-4 37q-2 18 3 26h-533q5 -8 3 -26q-2 -24 -4 -37t-8 -37q-4 -16 -11 -23q-8 -8 -24 -12q-24 -6 -37 -8t-37 -4q-18 -1 -25 3v-676zM121 1384v136h409v-273h136v-137h-271v137h-139v137h-135zM408 143v676h245v-676h-245z" />
<glyph unicode="&#xf3;" d="M121 143q7 4 25 3q24 -2 37 -4t37 -8q17 -4 24 -11t11 -24q6 -24 8 -37q2 -14 4 -36q2 -18 -3 -26h533q-5 8 -3 26q2 22 4 36q2 13 8 37q4 17 11 24t24 11q24 6 37 8q14 2 36 4q18 2 26 -3v676q-8 -5 -26 -3q-22 2 -36 4q-13 2 -37 8q-16 4 -24 12q-7 7 -11 23 q-6 24 -8 37t-4 37q-2 18 3 26h-533q5 -8 3 -26q-2 -24 -4 -37t-8 -37q-4 -16 -11 -23q-8 -8 -24 -12q-24 -6 -37 -8t-37 -4q-18 -1 -25 3v-676zM385 1108v135h135v275h408v-136h-133v-137h-138v-137h-272zM408 143v676h245v-676h-245z" />
<glyph unicode="&#xf4;" d="M121 143q7 4 25 3q24 -2 37 -4t37 -8q17 -4 24 -11t11 -24q6 -24 8 -37q2 -14 4 -36q2 -18 -3 -26h533q-5 8 -3 26q2 22 4 36q2 13 8 37q4 17 11 24t24 11q24 6 37 8q14 2 36 4q18 2 26 -3v676q-8 -5 -26 -3q-22 2 -36 4q-13 2 -37 8q-16 4 -24 12q-7 7 -11 23 q-6 24 -8 37t-4 37q-2 18 3 26h-533q5 -8 3 -26q-2 -24 -4 -37t-8 -37q-4 -16 -11 -23q-8 -8 -24 -12q-24 -6 -37 -8t-37 -4q-18 -1 -25 3v-676zM121 1098v137h133v137h139v137h273v-135h137v-139h133v-135h-270v137h-275v-139h-270zM408 143v676h245v-676h-245z" />
<glyph unicode="&#xf5;" d="M0 1102v274h137v133h408v-135h135v-137h139v139h133v133h138v-270h-138l2 -137h-407v137h-137v137h-140v-139h-135v-135h-135zM121 143q7 4 25 3q24 -2 37 -4t37 -8q17 -4 24 -11t11 -24q6 -24 8 -37q2 -14 4 -36q2 -18 -3 -26h533q-5 8 -3 26q2 22 4 36q2 13 8 37 q4 17 11 24t24 11q24 6 37 8q14 2 36 4q18 2 26 -3v676q-8 -5 -26 -3q-22 2 -36 4q-13 2 -37 8q-16 4 -24 12q-7 7 -11 23q-6 24 -8 37t-4 37q-2 18 3 26h-533q5 -8 3 -26q-2 -24 -4 -37t-8 -37q-4 -16 -11 -23q-8 -8 -24 -12q-24 -6 -37 -8t-37 -4q-18 -1 -25 3v-676z M408 143v676h245v-676h-245z" />
<glyph unicode="&#xf6;" d="M166 123h123v-123h491v123h123v670h-123v122h-491v-122h-123v-670zM166 1067h246v246h-246v-246zM412 123v670h245v-670h-245zM657 1067h246v246h-246v-246z" />
<glyph unicode="&#xf7;" d="M137 547v135h815v-135h-815zM410 137v273h272v-273h-272zM410 819v273h272v-273h-272z" />
<glyph unicode="&#xf8;" d="M137 0v819h135v137h682v-819h-135v-137h-682zM410 137h272v273h-135v-138h-137v-135zM410 547h135v135h137v137h-272v-272z" />
<glyph unicode="&#xf9;" d="M119 1378v133h407v-270h138v-139h-273v139h-137v137h-135zM121 143q7 4 25 3q24 -2 37 -4t37 -8q17 -4 24 -11t11 -24q6 -24 8 -37q2 -14 4 -36q2 -18 -3 -26h676v963h-276v-820h-267v820h-276v-820z" />
<glyph unicode="&#xfa;" d="M121 143q7 4 25 3q24 -2 37 -4t37 -8q17 -4 24 -11t11 -24q6 -24 8 -37q2 -14 4 -36q2 -18 -3 -26h676v963h-276v-820h-267v820h-276v-820zM393 1102v135h137v272h408v-135h-135v-135h-137v-137h-273z" />
<glyph unicode="&#xfb;" d="M121 143q7 4 25 3q24 -2 37 -4t37 -8q17 -4 24 -11t11 -24q6 -24 8 -37q2 -14 4 -36q2 -18 -3 -26h676v963h-276v-820h-267v820h-276v-820zM123 1098v137h135v137h137v135h271v-133h137v-137h135v-137h-272v137h-273v-139h-270z" />
<glyph unicode="&#xfc;" d="M166 1067h246v246h-246v-246zM170 119h123v-123h614v895h-245v-772h-246v772h-246v-772zM657 1067h246v246h-246v-246z" />
<glyph unicode="&#xfd;" d="M12 -285v-112h543v102q8 -5 28 -3q28 2 41 4q19 3 40 8q16 4 24 12q2 2 5 20q4 22 5 40q1 8 2.5 21.5t1.5 18.5q1 16 7 22q8 8 24 12q21 5 40 8q13 2 41 4q20 2 28 -3v276h133v830h-277v-819h-266v819h-276v-819q7 4 25 3q24 -2 37 -4q3 0 37 -9q17 -4 24 -11t11 -24 q5 -21 8 -40q2 -13 4 -41q2 -20 -3 -28h246v-143h-113v-144h-420zM422 1112v137h137l-2 275h410v-135h-136v-138h-137v-139h-272z" />
<glyph unicode="&#xfe;" d="M137 -410v1639h273v-408h407v-139h135v-545h-133v-137h-409v-410h-273zM410 139h272v545h-272v-545z" />
<glyph unicode="&#xff;" d="M12 -285v-112h543v102q8 -5 28 -3q28 2 41 4q19 3 40 8q16 4 24 12q2 2 5 20q4 22 5 40q1 8 2.5 21.5t1.5 18.5q1 16 7 22q8 8 24 12q21 5 40 8q13 2 41 4q20 2 28 -3v276h133v830h-277v-819h-266v819h-276v-819q7 4 25 3q24 -2 37 -4q3 0 37 -9q17 -4 24 -11t11 -24 q5 -21 8 -40q2 -13 4 -41q2 -20 -3 -28h246v-143h-113v-144h-420zM152 1106v274h272v-274h-272zM700 1106v274h275v-274h-275z" />
<glyph unicode="&#x2dc;" d="M2 866h125v133h137v140h158v-140h123v-133h442v133h121v277h-123v-129h-164v-137h-123v139h-163v145h-400v-153h-133v-275z" />
<glyph unicode="&#x2000;" horiz-adv-x="832" />
<glyph unicode="&#x2001;" horiz-adv-x="1665" />
<glyph unicode="&#x2002;" horiz-adv-x="832" />
<glyph unicode="&#x2003;" horiz-adv-x="1665" />
<glyph unicode="&#x2004;" horiz-adv-x="555" />
<glyph unicode="&#x2005;" horiz-adv-x="416" />
<glyph unicode="&#x2006;" horiz-adv-x="277" />
<glyph unicode="&#x2007;" horiz-adv-x="277" />
<glyph unicode="&#x2008;" horiz-adv-x="208" />
<glyph unicode="&#x2009;" horiz-adv-x="333" />
<glyph unicode="&#x200a;" horiz-adv-x="92" />
<glyph unicode="&#x2010;" d="M115 518h819v103h-819v-103z" />
<glyph unicode="&#x2011;" d="M115 518h819v103h-819v-103z" />
<glyph unicode="&#x2012;" d="M115 518h819v103h-819v-103z" />
<glyph unicode="&#x2013;" horiz-adv-x="1331" d="M115 518h1024v103h-1024v-103z" />
<glyph unicode="&#x2014;" horiz-adv-x="2355" d="M115 518h2048v103h-2048v-103z" />
<glyph unicode="&#x202f;" horiz-adv-x="333" />
<glyph unicode="&#x205f;" horiz-adv-x="416" />
<glyph unicode="&#x20ac;" d="M0 446v129h129v130h-129v114h127v334h129v127h637v-125h129v-131h-254v129h-385v-332h385v-116l-387 -3v-129h258v-131h-258v-313h385v127h256v-125h-127v-131h-641v131h-125v315h-129z" />
<glyph unicode="&#xe000;" horiz-adv-x="962" d="M0 0v963h963v-963h-963z" />
</font>
</defs>
</svg>
